osu file format v14

[General]
AudioFilename: Rakuen no Tsubasa.mp3
AudioLeadIn: 1500
PreviewTime: 129425
Countdown: 0
SampleSet: Soft
StackLeniency: 0.7
Mode: 0
LetterboxInBreaks: 0
WidescreenStoryboard: 0

[Editor]
Bookmarks: 59199,130424,155392,173973,186360,192553
DistanceSpacing: 1.2
BeatDivisor: 6
GridSize: 4
TimelineZoom: 3.299999

[Metadata]
Title:Rakuen no Tsubasa
TitleUnicode:楽園の翼
Artist:Kurosaki Maon
ArtistUnicode:黒崎真音
Creator:Asagi
Version:Insane
Source:グリザイアの果実 -LE FRUIT DE LA GRISAIA-
Tags:Sakaki Yumiko Kajitsu frontwing opening 10nya -_t_e_n_n_y_a_-
BeatmapID:529108
BeatmapSetID:227041

[Difficulty]
HPDrainRate:7
CircleSize:4
OverallDifficulty:8
ApproachRate:9
SliderMultiplier:1.8
SliderTickRate:2

[Events]
//Background and Video events
0,0,"Yumiko.png",0,0
//Break Periods
2,186528,191505
//Storyboard Layer 0 (Background)
//Storyboard Layer 1 (Fail)
//Storyboard Layer 2 (Pass)
//Storyboard Layer 3 (Foreground)
//Storyboard Sound Samples

[TimingPoints]
522,387.096774193548,4,2,1,60,1,0
1683,-125,4,2,1,60,0,0
8070,-200,4,2,1,40,0,0
8844,-100,4,2,1,50,0,0
9618,-100,4,2,1,60,0,1
9715,-100,4,2,1,60,0,0
19876,-111.111111111111,4,2,1,50,0,0
22199,-125,4,2,1,40,0,0
33618,-100,4,2,1,60,0,0
38263,-83.3333333333333,4,2,1,70,0,0
39038,-100,4,2,1,60,0,0
40005,-125,4,2,1,60,0,0
40586,-100,4,2,1,60,0,0
48521,-100,4,2,3,60,0,0
48618,-100,4,2,1,60,0,0
51618,-100,4,2,3,60,0,0
51715,-100,4,2,1,60,0,0
57618,-83.3333333333333,4,2,1,60,0,0
59167,-100,4,2,1,70,0,1
70392,-100,4,2,1,70,0,0
71554,-100,4,2,1,70,0,1
81038,-100,4,2,1,70,0,0
83360,-125,4,2,1,60,0,0
83747,-100,4,2,1,60,0,0
93425,-200,4,2,1,30,0,0
102715,-200,4,2,1,50,0,0
103296,-100,4,2,1,60,0,0
109489,-83.3333333333333,4,2,1,60,0,0
110263,-100,4,2,1,60,0,0
119747,-100,4,2,3,60,0,0
119844,-100,4,2,1,60,0,0
128844,-83.3333333333333,4,2,1,60,0,0
130392,-100,4,2,1,70,0,1
141618,-100,4,2,1,70,0,0
142780,-100,4,2,1,70,0,1
152263,-100,4,2,1,70,0,0
154973,-76.9230769230769,4,2,1,60,0,0
155360,-100,4,2,1,60,0,0
155554,-100,4,2,1,30,0,0
155747,-100,4,2,1,60,0,0
155941,-100,4,2,1,30,0,0
156134,-100,4,2,1,60,0,0
156328,-100,4,2,1,30,0,0
156521,-100,4,2,1,60,0,0
156715,-100,4,2,1,30,0,0
156909,-100,4,2,1,60,0,0
161554,-125,4,2,1,40,0,0
169296,-111.111111111111,4,2,1,40,0,0
170844,-100,4,2,1,60,0,0
192134,-200,4,2,1,30,0,0
192521,-125,4,2,1,30,0,0
194070,-111.111111111111,4,2,1,40,0,0
195425,-100,4,2,1,60,0,0
198521,-71.4285714285714,4,2,1,80,0,1
198909,-90.9090909090909,4,2,1,70,0,1
208005,-90.9090909090909,4,2,1,70,0,0
212651,-90.9090909090909,4,2,1,70,0,1
212747,-90.9090909090909,4,2,1,70,0,0
213425,-125,4,2,1,60,0,0
213812,-100,4,2,1,60,0,0
214199,-100,4,2,1,60,0,1
214392,-100,4,2,1,60,0,0
221167,-100,4,2,1,5,0,0

[Colours]
Combo1 : 255,146,94
Combo2 : 169,83,255
Combo3 : 255,74,74
Combo4 : 0,128,255

[HitObjects]
280,88,1683,5,0,0:0:0:0:
244,252,1876,1,0,0:0:0:0:
180,135,2070,6,0,B|127:151|72:140,2,108,6|2|2,0:0|0:0|0:0,0:0:0:0:
336,196,2844,2,0,B|389:183|443:191,2,108,2|2|2,0:0|0:0|0:0,0:0:0:0:
176,308,3618,2,0,B|215:341|271:339|307:308,1,144,4|2,0:0|0:0,0:0:0:0:
168,212,4199,5,0,0:0:0:0:
88,264,4392,1,2,0:0:0:0:
176,308,4586,1,0,0:0:0:0:
84,172,4780,1,2,0:0:0:0:
256,248,4973,1,2,0:0:0:0:
164,124,5167,6,0,L|248:132,1,72,4|0,0:3|0:0,0:0:0:0:
280,128,5457,2,0,B|306:91|299:42|269:13,1,108,4|4,0:3|0:3,0:0:0:0:
85,68,5941,2,0,B|66:102|67:141|84:172,2,108,4|4|4,0:3|0:3|0:3,0:0:0:0:
168,212,6715,1,4,0:0:0:0:
168,212,7489,6,0,L|264:208,1,72,2|0,0:0|0:0,0:0:0:0:
368,132,7876,1,2,0:0:0:0:
464,300,8070,6,0,B|421:326|367:317|333:280|325:238,1,180,0|2,0:0|0:0,0:0:0:0:
368,132,9038,1,2,0:0:0:0:
420,220,9231,1,2,0:0:0:0:
436,44,9425,1,2,0:0:0:0:
264,136,9618,6,0,B|206:163|138:136|113:79,1,180,4|0,0:0|0:0,0:0:0:0:
72,256,10199,2,0,B|105:246|139:245|170:252,1,90,8|0,0:0|0:0,0:0:0:0:
60,168,10586,1,2,0:0:0:0:
60,168,10780,1,2,0:0:0:0:
124,336,10973,1,8,0:0:0:0:
252,312,11167,6,0,L|256:222,1,90,2|0,0:0|0:0,0:0:0:0:
256,116,11554,1,2,0:0:0:0:
412,184,11747,2,0,L|408:276,1,90,8|0,0:0|0:0,0:0:0:0:
344,348,12134,1,2,0:0:0:0:
344,348,12328,1,2,0:0:0:0:
492,292,12521,1,8,0:0:0:0:
324,232,12715,6,0,L|136:236,1,180,2|0,0:0|0:0,0:0:0:0:
32,188,13296,1,8,0:0:0:0:
96,316,13489,1,2,0:0:0:0:
200,148,13683,2,0,L|104:152,1,90,0|0,0:0|0:0,0:0:0:0:
240,48,14070,1,10,0:0:0:0:
276,208,14263,6,0,B|300:157|353:129|408:135|447:163,1,180,2|0,0:0|0:0,0:0:0:0:
272,296,14844,2,0,B|223:298|174:300,1,90,8|0,0:0|0:0,0:0:0:0:
376,236,15231,1,2,0:0:0:0:
376,236,15425,1,2,0:0:0:0:
328,364,15618,1,8,0:0:0:0:
192,204,15812,6,0,L|184:104,1,90,4|0,0:0|0:0,0:0:0:0:
32,44,16199,1,2,0:0:0:0:
32,44,16392,1,10,0:0:0:0:
76,160,16586,2,0,L|82:249,1,90,2|0,0:0|0:0,0:0:0:0:
52,367,16973,1,0,0:0:0:0:
52,367,17070,1,2,0:0:0:0:
52,368,17167,2,0,B|91:339|140:335|180:353,1,135,10|0,0:0|0:0,0:0:0:0:
216,364,17554,6,0,L|224:268,1,90,4|0,0:0|0:0,0:0:0:0:
304,136,17941,1,8,0:0:0:0:
452,272,18134,2,0,B|410:305|354:304|311:274|292:233,1,180,4|0,0:0|0:0,0:0:0:0:
304,136,18715,1,8,0:0:0:0:
384,200,18909,1,0,0:0:0:0:
212,188,19102,6,0,B|197:159|197:126|208:98,1,90,4|0,0:0|0:0,0:0:0:0:
268,40,19392,2,0,B|230:70|180:71|142:49,1,135,4|4,0:3|0:3,0:0:0:0:
56,244,19876,6,0,L|144:240,1,80.9999975280763,4|0,0:3|0:0,0:0:0:0:
208,268,20167,2,0,B|193:308|148:327|110:314,1,121.499996292114,4|4,0:3|0:3,0:0:0:0:
212,188,20651,5,8,0:0:0:0:
428,336,20844,1,8,0:0:0:0:
428,336,21231,6,0,L|417:174,1,161.999995056153,12|0,0:0|0:0,0:0:0:0:
376,76,21812,1,0,0:0:0:0:
504,184,22005,1,0,0:0:0:0:
332,248,22199,6,0,L|328:168,1,72,4|0,0:0|1:0,0:0:0:0:
248,296,22586,1,0,0:0:0:0:
204,204,22780,2,0,B|171:246|113:256|69:233,1,144,2|0,0:0|0:0,0:0:0:0:
204,112,23360,2,0,L|288:104,1,72,2|0,0:0|0:0,0:0:0:0:
120,160,23747,2,0,B|112:112|112:112|128:64|128:64|120:12,1,144,2|0,0:0|0:0,0:0:0:0:
40,56,24328,5,2,0:0:0:0:
204,112,24521,1,0,0:0:0:0:
40,160,24715,1,0,0:0:0:0:
188,208,24909,1,2,0:0:0:0:
84,256,25102,1,0,0:0:0:0:
216,200,25296,6,0,B|261:198|304:204,1,72,0|0,1:0|1:0,0:0:0:0:
412,160,25683,1,0,0:0:0:0:
484,284,25876,2,0,B|439:309|384:292|360:249,1,144,2|0,0:0|0:0,0:0:0:0:
412,160,26457,2,0,L|496:168,1,72,2|0,0:0|0:0,0:0:0:0:
408,72,26844,6,0,L|264:60,1,144,2|0,0:0|0:0,0:0:0:0:
212,152,27425,1,0,0:0:0:0:
212,152,27618,2,0,L|328:164,2,108,2|0|0,0:0|0:0|0:0,0:0:0:0:
112,176,28392,5,0,1:0:0:0:
112,176,28586,1,0,1:0:0:0:
164,76,28780,1,0,0:0:0:0:
172,252,28973,2,0,B|100:264|100:264|20:232,1,144,2|0,0:0|0:0,0:0:0:0:
176,336,29554,2,0,L|272:340,1,72,2|0,0:0|0:0,0:0:0:0:
352,340,29941,5,2,0:0:0:0:
380,248,30134,2,0,L|300:252,1,72,,,0:0:0:0:
456,308,30521,1,2,0:0:0:0:
388,156,30715,1,0,0:0:0:0:
472,212,30909,1,0,0:0:0:0:
296,188,31102,2,0,B|283:165|285:139|296:118,1,72,2|0,0:0|0:0,0:0:0:0:
304,104,31392,1,0,0:0:0:0:
316,92,31489,6,0,L|245:95,1,72,0|0,1:0|1:0,0:0:0:0:
136,48,31876,1,0,0:0:0:0:
48,168,32070,2,0,B|90:197|147:184|173:141,1,144,2|0,0:0|0:0,0:0:0:0:
240,288,32651,2,0,B|196:279|152:288,1,72,2|0,0:0|0:0,0:0:0:0:
248,196,33038,1,8,0:0:0:0:
492,356,33231,1,8,0:0:0:0:
492,356,33618,6,0,B|448:352|448:352|420:364|420:364|356:352,1,135,4|0,0:0|0:0,0:0:0:0:
324,344,34005,1,0,0:3:0:0:
248,196,34199,1,8,0:3:0:0:
280,200,34296,1,8,0:3:0:0:
312,204,34392,1,8,0:3:0:0:
344,208,34489,1,8,0:3:0:0:
380,212,34586,6,0,B|397:184|395:152|380:126,1,90,4|0,0:0|0:0,0:0:0:0:
272,16,34973,1,8,0:0:0:0:
112,96,35167,2,0,B|176:92|176:92|228:116|228:116|286:113,1,180,2|0,0:0|0:0,0:0:0:0:
120,184,35747,2,0,L|24:188,1,90,10|0,0:0|0:0,0:0:0:0:
212,276,36134,6,0,L|301:272,1,90,2|0,0:0|0:0,0:0:0:0:
128,324,36521,1,8,0:0:0:0:
216,180,36715,2,0,B|218:129|208:80,1,90,2|0,0:0|0:0,0:0:0:0:
120,184,37102,1,0,0:0:0:0:
304,108,37296,1,10,0:0:0:0:
140,24,37489,1,0,0:0:0:0:
304,200,37683,6,0,B|341:210|379:203|408:184,1,90,4|0,0:3|0:0,0:0:0:0:
424,172,37973,1,8,0:0:0:0:
424,172,38070,1,8,0:0:0:0:
228,264,38263,6,0,B|227:326|240:384,1,107.999996704102,4|0,0:0|0:0,0:0:0:0:
100,124,38651,2,0,B|99:62|89:3,1,107.999996704102,4|8,0:0|0:0,0:0:0:0:
72,212,39038,6,0,B|160:228|156:160|244:172,1,180,4|0,0:0|0:0,0:0:0:0:
352,256,39618,1,8,0:0:0:0:
344,128,39812,1,0,0:0:0:0:
344,128,39909,1,0,0:0:0:0:
344,128,40005,2,0,B|335:67|336:7,2,108,4|4|4,0:3|0:3|0:3,0:0:0:0:
358,345,40780,6,0,B|357:299|352:255,1,90,4|0,0:0|0:0,0:0:0:0:
256,184,41167,1,10,0:0:0:0:
264,304,41360,1,2,0:0:0:0:
432,228,41554,1,2,0:0:0:0:
256,184,41747,5,2,0:0:0:0:
344,236,41941,1,10,0:0:0:0:
316,104,42134,1,2,0:0:0:0:
168,220,42328,6,0,B|139:236|106:236|78:223,1,90,4|0,0:0|0:0,0:0:0:0:
8,88,42715,2,0,B|40:87|68:102|86:125,1,90,8|0,0:0|0:0,0:0:0:0:
116,312,43102,1,2,0:0:0:0:
16,176,43296,1,2,0:0:0:0:
24,352,43489,1,8,0:0:0:0:
112,204,43683,1,0,0:0:0:0:
208,332,43876,6,0,L|304:340,1,90,4|0,0:0|0:0,0:0:0:0:
452,304,44263,1,8,0:0:0:0:
372,184,44457,2,0,L|276:176,1,90,2|0,0:0|0:0,0:0:0:0:
316,68,44844,1,0,0:0:0:0:
449,227,45038,2,0,B|461:197|459:166|448:140,1,90,10|0,0:0|0:0,0:0:0:0:
424,112,45328,1,2,0:0:0:0:
424,112,45425,5,2,0:0:0:0:
340,268,45618,1,8,0:0:0:0:
96,44,46005,1,4,0:0:0:0:
104,52,46392,2,0,L|100:144,1,90,8|4,0:0|0:3,0:0:0:0:
36,232,46780,1,4,0:3:0:0:
148,344,46973,6,0,L|151:254,1,90,4|0,0:0|0:0,0:0:0:0:
232,168,47360,1,8,0:0:0:0:
343,315,47554,2,0,B|298:311|253:311,1,90,2|8,0:0|0:0,0:0:0:0:
416,248,47941,2,0,B|465:250|514:252,1,90,2|8,0:0|0:0,0:0:0:0:
324,216,48328,6,0,L|332:36,1,180,2|0,0:0|0:0,0:0:0:0:
424,116,48909,1,8,0:0:0:0:
232,168,49102,2,0,L|240:72,1,90,2|8,0:0|0:0,0:0:0:0:
332,36,49489,1,2,0:0:0:0:
424,116,49683,1,8,0:0:0:0:
232,168,49876,1,2,0:0:0:0:
332,280,50070,6,0,L|152:272,1,180,10|8,0:0|0:0,0:0:0:0:
308,188,50651,2,0,L|400:192,1,90,2|8,0:0|0:0,0:0:0:0:
448,108,51038,1,2,0:0:0:0:
484,264,51231,1,10,0:0:0:0:
448,108,51425,6,0,L|264:96,1,180,2|0,0:0|0:0,0:0:0:0:
132,72,52005,1,10,0:0:0:0:
64,224,52199,2,0,B|108:247|161:236|195:201|205:159,1,180,2|0,0:0|0:0,0:0:0:0:
288,312,52780,2,0,B|255:301|222:301|192:309,1,90,8|0,0:0|0:0,0:0:0:0:
300,208,53167,6,0,L|456:200,1,135,4|0,0:0|0:0,0:0:0:0:
472,200,53554,1,8,0:0:0:0:
376,112,53747,2,0,L|465:108,1,90,2|0,0:0|0:0,0:0:0:0:
312,36,54134,1,2,0:0:0:0:
228,144,54328,2,0,L|136:148,1,90,8|0,0:0|0:0,0:0:0:0:
208,344,54715,6,0,B|237:331|253:302|252:273,1,90,4|0,0:3|0:0,0:0:0:0:
44,271,55102,2,0,L|134:268,1,90,8|4,0:0|0:3,0:0:0:0:
164,268,55392,1,0,0:0:0:0:
164,268,55489,2,0,B|178:235|174:200|156:172,1,90,2|4,0:0|0:3,0:0:0:0:
60,84,55876,1,8,0:0:0:0:
80,232,56070,1,0,0:0:0:0:
80,232,56167,1,0,0:0:0:0:
80,232,56263,5,12,0:0:0:0:
268,148,56457,1,2,0:0:0:0:
144,120,56651,1,8,0:0:0:0:
264,304,56844,1,2,0:0:0:0:
360,100,57038,1,8,0:0:0:0:
184,228,57231,1,2,0:0:0:0:
416,248,57425,1,8,0:3:0:0:
244,92,57618,6,0,B|199:134|131:135|82:97|65:46,1,215.999993408203,4|4,0:0|0:3,0:0:0:0:
172,16,58199,1,4,0:3:0:0:
292,188,58392,1,2,0:0:0:0:
376,28,58586,1,8,0:0:0:0:
244,92,58780,1,0,0:0:0:0:
244,92,58876,1,8,0:0:0:0:
244,92,58973,1,8,0:0:0:0:
452,192,59167,6,0,B|420:154|367:144|325:164,1,135,4|0,0:0|0:0,0:0:0:0:
292,188,59554,1,2,0:0:0:0:
240,368,59747,2,0,L|232:276,1,90,8|0,0:0|0:0,0:0:0:0:
336,296,60134,1,2,0:0:0:0:
136,312,60328,1,2,0:0:0:0:
292,188,60521,1,8,0:0:0:0:
156,195,60715,6,0,L|67:197,1,90,2|0,0:0|0:0,0:0:0:0:
216,100,61102,1,2,0:0:0:0:
240,268,61296,2,0,B|298:295|366:266|387:208,1,180,8|0,0:0|0:0,0:0:0:0:
364,112,61876,1,2,0:0:0:0:
456,256,62070,1,8,0:0:0:0:
292,188,62263,6,0,L|108:196,1,180,2|0,0:0|0:0,0:0:0:0:
40,88,62844,1,8,0:0:0:0:
160,12,63038,2,0,L|156:124,1,90,2|0,0:0|0:0,0:0:0:0:
89,320,63425,1,2,0:0:0:0:
24,180,63618,1,8,0:0:0:0:
88,320,63812,6,0,L|268:312,1,180,2|0,0:0|0:0,0:0:0:0:
451,208,64392,2,0,L|362:212,1,90,8|2,0:0|0:0,0:0:0:0:
264,192,64780,1,0,0:0:0:0:
384,304,64973,1,2,0:0:0:0:
356,120,65167,1,8,0:0:0:0:
184,244,65360,6,0,B|154:200|165:142|207:112,1,135,4|0,0:0|0:0,0:0:0:0:
232,100,65747,1,2,0:0:0:0:
264,192,65941,1,8,0:0:0:0:
103,303,66134,2,0,B|67:250|62:187|84:132,1,180,2|0,0:0|0:0,0:0:0:0:
152,40,66715,1,8,0:0:0:0:
320,128,66909,6,0,B|368:132|368:132|412:116|412:116|451:119,1,135,4|0,0:0|0:0,0:0:0:0:
488,120,67296,1,2,0:0:0:0:
356,40,67489,1,8,0:0:0:0:
308,224,67683,2,0,B|372:232|372:232|428:216|428:216|496:220,1,180,2|0,0:0|0:0,0:0:0:0:
492,332,68263,1,8,0:0:0:0:
360,316,68457,6,0,L|181:296,1,180,4|0,0:0|0:0,0:0:0:0:
72,336,69038,1,10,0:0:0:0:
96,156,69231,1,0,0:0:0:0:
188,324,69425,1,2,0:0:0:0:
24,240,69618,1,2,0:0:0:0:
172,84,69812,1,10,0:0:0:0:
252,256,70005,6,0,B|315:286|390:253|412:188,1,180,4|4,0:0|0:3,0:0:0:0:
416,88,70586,1,4,0:3:0:0:
472,304,70780,1,2,0:0:0:0:
300,148,70973,1,2,0:0:0:0:
512,172,71167,1,0,0:0:0:0:
512,172,71263,1,8,0:0:0:0:
512,172,71360,1,8,0:0:0:0:
320,280,71554,6,0,B|272:310|212:299|177:261,1,135,4|0,0:0|0:0,0:0:0:0:
168,248,71941,1,2,0:0:0:0:
140,56,72134,2,0,L|132:152,1,90,8|0,0:0|0:0,0:0:0:0:
60,232,72521,1,2,0:0:0:0:
224,152,72715,1,2,0:0:0:0:
40,124,72909,1,8,0:0:0:0:
236,64,73102,6,0,L|325:67,1,90,2|0,0:0|0:0,0:0:0:0:
444,24,73489,1,2,0:0:0:0:
512,192,73683,2,0,B|471:221|417:216|379:184|365:142,1,180,8|0,0:0|0:0,0:0:0:0:
460,112,74263,1,2,0:0:0:0:
460,112,74457,1,8,0:0:0:0:
403,241,74651,6,0,B|355:283|282:274|244:225,1,180,2|0,0:0|0:0,0:0:0:0:
148,360,75231,1,8,0:0:0:0:
48,256,75425,2,0,L|156:260,1,90,2|0,0:0|0:0,0:0:0:0:
244,224,75812,1,2,0:0:0:0:
148,360,76005,1,8,0:0:0:0:
244,224,76199,6,0,L|256:44,1,180,2|0,0:0|0:0,0:0:0:0:
144,168,76780,2,0,L|140:257,1,90,8|2,0:0|0:0,0:0:0:0:
48,132,77167,1,0,0:0:0:0:
244,224,77360,1,2,0:0:0:0:
148,68,77554,1,8,0:0:0:0:
324,176,77747,6,0,B|412:188|412:188|464:160,1,135,4|0,0:0|0:0,0:0:0:0:
480,144,78134,1,2,0:0:0:0:
392,88,78328,1,8,0:0:0:0:
332,268,78521,2,0,B|424:280|424:280|508:240,1,180,2|0,0:0|0:0,0:0:0:0:
324,176,79102,1,8,0:0:0:0:
224,320,79296,1,2,0:0:0:0:
84,216,79489,6,0,B|128:187|184:190|223:219,1,135,4|0,0:0|0:0,0:0:0:0:
244,232,79876,1,8,0:0:0:0:
412,100,80070,2,0,B|356:141|282:135|233:93,1,180,6|0,0:0|0:0,0:0:0:0:
132,24,80651,1,8,0:0:0:0:
68,116,80844,1,0,0:0:0:0:
136,264,81038,6,0,B|147:233|146:201|136:173,1,90,4|0,0:0|0:0,0:0:0:0:
68,116,81328,2,0,B|109:141|158:139|196:116,1,135,4|4,0:3|0:3,0:0:0:0:
428,228,81812,6,0,B|397:217|364:218|335:228,1,90,4|0,0:3|0:0,0:0:0:0:
284,292,82102,2,0,B|247:261|245:205|279:171,1,135,4|4,0:3|0:3,0:0:0:0:
440,84,82586,1,4,0:0:0:0:
440,84,83360,6,0,B|404:102|364:99|332:80,1,108,,,0:0:0:0:
256,16,83747,6,0,L|252:64,1,45,2|2,0:0|0:0,0:0:0:0:
177,208,83941,2,0,L|168:164,1,45,2|2,0:0|0:0,0:0:0:0:
108,84,84134,6,0,B|74:71|38:74|8:88,1,90,4|0,0:0|0:0,0:0:0:0:
72,244,84521,1,8,0:0:0:0:
168,164,84715,2,0,B|240:162|310:156,1,135,2|0,0:0|0:0,0:0:0:0:
340,156,85102,1,2,0:0:0:0:
440,84,85296,1,8,0:0:0:0:
512,244,85489,6,0,B|420:240|331:252,1,180,2|0,0:0|0:0,0:0:0:0:
144,368,86070,2,0,B|190:365|236:362,1,90,8|0,0:0|0:0,0:0:0:0:
368,324,86457,1,2,0:0:0:0:
232,228,86651,1,2,0:0:0:0:
340,156,86844,2,0,B|351:125|350:93|340:65,1,90,8|0,0:0|0:0,0:0:0:0:
160,160,87231,6,0,L|70:163,1,90,6|0,0:0|0:0,0:0:0:0:
232,80,87618,1,8,0:0:0:0:
328,232,87812,2,0,L|417:228,1,90,2|0,0:0|0:0,0:0:0:0:
216,360,88199,2,0,B|198:333|195:301|203:273,1,90,2|8,0:0|0:0,0:0:0:0:
324,133,88586,6,0,B|281:180|213:189|161:161,1,180,4|2,0:0|0:0,0:0:0:0:
128,124,89070,1,2,0:0:0:0:
128,124,89167,2,0,B|114:88|119:50|136:20,1,90,8|0,0:0|0:0,0:0:0:0:
408,96,89554,2,0,B|422:142|405:189|371:216,1,135,4|2,0:3|0:0,0:0:0:0:
272,268,89941,1,10,0:0:0:0:
272,268,90038,1,2,0:0:0:0:
272,268,90134,2,0,L|280:312,1,45,2|0,0:0|0:0,0:0:0:0:
301,185,90328,6,0,B|271:175|239:182|216:200,1,90,6|0,0:0|0:0,0:0:0:0:
104,268,90715,1,8,0:0:0:0:
8,108,90909,2,0,B|46:159|116:170|167:137,1,180,2|0,0:0|0:0,0:0:0:0:
260,24,91489,1,8,0:0:0:0:
224,200,91683,1,2,0:0:0:0:
104,56,91876,5,2,0:0:0:0:
412,88,92070,1,8,0:0:0:0:
412,88,92457,1,4,0:0:0:0:
412,88,93425,6,0,L|416:133,1,45,2|0,0:0|0:0,0:0:0:0:
464,208,93812,1,0,0:0:0:0:
376,264,94005,2,0,L|372:212,1,45,2|0,0:0|0:0,0:0:0:0:
316,144,94392,1,0,0:0:0:0:
280,236,94586,2,0,L|284:284,1,45,2|0,0:0|0:0,0:0:0:0:
216,344,94973,6,0,B|186:361|152:359|124:344,1,90,2|0,0:0|0:0,0:0:0:0:
88,280,95554,1,2,0:0:0:0:
120,204,95747,1,0,0:0:0:0:
168,272,95941,1,0,0:0:0:0:
40,212,96134,1,2,0:0:0:0:
156,128,96328,1,0,0:0:0:0:
244,192,96521,6,0,L|304:184,1,45,2|0,0:0|0:0,0:0:0:0:
364,124,96909,1,0,0:0:0:0:
444,244,97102,2,0,L|352:252,1,90,2|0,0:0|0:0,0:0:0:0:
444,160,97683,2,0,L|492:152,1,45,2|0,0:0|0:0,0:0:0:0:
432,72,98070,5,2,0:0:0:0:
364,124,98263,1,2,0:0:0:0:
280,140,98457,1,2,0:0:0:0:
200,120,98651,1,0,0:0:0:0:
148,60,98844,5,2,0:0:0:0:
228,76,99038,1,0,0:0:0:0:
280,140,99231,1,2,0:0:0:0:
276,224,99425,1,2,0:0:0:0:
216,284,99618,6,0,B|191:306|157:310|128:298,1,90,2|0,0:0|0:0,0:0:0:0:
68,216,100199,2,0,L|164:220,1,90,2|0,0:0|0:0,0:0:0:0:
228,144,100780,2,0,L|182:142,1,45,2|0,0:0|0:0,0:0:0:0:
276,224,101167,5,2,0:0:0:0:
444,212,101360,1,0,0:0:0:0:
316,148,101554,1,0,0:0:0:0:
404,288,101747,1,2,0:0:0:0:
396,144,101941,1,0,0:0:0:0:
324,288,102134,2,0,L|332:336,2,45,0|2|0,0:0|0:0|0:0,0:0:0:0:
360,216,102715,5,8,0:0:0:0:
92,292,102909,1,4,0:0:0:0:
92,292,103296,6,0,L|277:304,1,180,4|0,0:0|0:0,0:0:0:0:
132,200,103876,2,0,L|42:192,1,90,8|4,0:0|0:3,0:0:0:0:
8,188,104167,1,4,0:3:0:0:
8,188,104263,5,8,0:0:0:0:
264,40,104457,1,0,0:0:0:0:
264,40,104844,6,0,B|289:84|284:136|257:173,1,135,4|0,0:0|0:0,0:0:0:0:
240,196,105231,1,4,0:3:0:0:
168,100,105425,1,4,0:3:0:0:
176,304,105618,1,4,0:3:0:0:
356,208,105812,6,0,L|448:212,1,90,4|0,0:0|0:0,0:0:0:0:
336,112,106199,1,8,0:0:0:0:
280,282,106392,2,0,B|220:305|154:272|135:212,1,180,2|0,0:0|0:0,0:0:0:0:
16,344,106973,2,0,B|61:337|106:334,1,90,10|0,0:0|0:0,0:0:0:0:
48,156,107360,6,0,B|46:203|40:249,1,90,2|0,0:0|0:0,0:0:0:0:
140,132,107747,1,8,0:0:0:0:
72,64,107941,1,2,0:0:0:0:
124,220,108134,1,0,0:0:0:0:
228,96,108328,1,0,0:0:0:0:
48,156,108521,1,8,0:0:0:0:
216,192,108715,1,0,0:0:0:0:
384,128,108909,6,0,B|402:95|399:57|380:28,1,90,4|0,0:3|0:0,0:0:0:0:
368,12,109199,1,8,0:0:0:0:
368,12,109296,1,8,0:0:0:0:
340,224,109489,6,0,L|447:220,1,107.999996704102,4|0,0:0|0:0,0:0:0:0:
156,312,109876,2,0,L|48:315,1,107.999996704102,4|8,0:0|0:0,0:0:0:0:
244,364,110263,6,0,B|268:324|251:278|251:278|228:228|248:188,1,180,4|0,0:0|0:0,0:0:0:0:
360,40,110844,1,8,0:0:0:0:
340,224,111038,1,0,0:0:0:0:
340,224,111134,1,0,0:0:0:0:
340,224,111231,5,4,0:3:0:0:
140,108,111521,1,4,0:3:0:0:
360,40,111812,1,4,0:3:0:0:
440,96,112005,5,4,0:0:0:0:
440,96,112199,1,0,0:0:0:0:
248,176,112392,1,8,0:0:0:0:
248,176,112586,1,0,0:0:0:0:
432,200,112780,5,2,0:0:0:0:
264,72,112973,1,2,0:0:0:0:
440,96,113167,1,10,0:0:0:0:
248,176,113360,1,2,0:0:0:0:
348,120,113554,6,0,B|358:90|359:59|352:31,1,90,4|0,0:0|0:0,0:0:0:0:
332,236,113941,2,0,B|322:270|328:305|345:333,1,90,8|0,0:0|0:0,0:0:0:0:
432,200,114328,1,2,0:0:0:0:
484,292,114521,1,2,0:0:0:0:
332,236,114715,1,8,0:0:0:0:
468,108,114909,1,0,0:0:0:0:
332,236,115102,6,0,B|286:248|240:244,1,90,4|0,0:0|0:0,0:0:0:0:
388,316,115489,1,8,0:0:0:0:
344,140,115683,2,0,B|336:94|340:48,1,90,2|0,0:0|0:0,0:0:0:0:
432,200,116070,1,0,0:0:0:0:
244,148,116263,2,0,B|189:156|136:148,1,90,10|0,0:0|0:0,0:0:0:0:
160,48,116651,5,2,0:0:0:0:
72,288,116844,1,8,0:0:0:0:
432,100,117231,1,4,0:0:0:0:
436,108,117618,2,0,L|432:197,1,90,8|4,0:0|0:3,0:0:0:0:
424,296,118005,1,4,0:3:0:0:
300,384,118199,6,0,L|306:294,1,90,4|2,0:0|0:0,0:0:0:0:
228,180,118586,1,8,0:0:0:0:
128,316,118780,2,0,L|217:323,1,90,2|8,0:0|0:0,0:0:0:0:
92,228,119167,2,0,L|0:220,1,90,2|8,0:0|0:0,0:0:0:0:
192,232,119554,6,0,L|212:48,1,180,2|2,0:0|0:0,0:0:0:0:
320,8,120134,1,8,0:0:0:0:
300,200,120328,2,0,L|308:100,1,90,2|8,0:0|0:0,0:0:0:0:
424,84,120715,1,2,0:0:0:0:
380,252,120909,1,8,0:0:0:0:
496,152,121102,1,2,0:0:0:0:
455,299,121296,6,0,B|424:338|372:350|326:331|301:297,1,180,8|8,0:0|0:0,0:0:0:0:
116,344,121876,2,0,L|208:352,1,90,2|8,0:0|0:0,0:0:0:0:
300,296,122263,1,2,0:0:0:0:
168,192,122457,1,8,0:0:0:0:
296,116,122651,2,0,B|307:85|306:53|296:25,1,90,2|8,0:0|0:0,0:0:0:0:
208,72,123038,5,2,0:0:0:0:
260,228,123231,1,8,0:0:0:0:
388,148,123425,2,0,L|480:152,1,90,2|0,0:0|0:0,0:0:0:0:
356,252,123812,1,4,0:3:0:0:
168,192,124005,2,0,L|72:188,1,90,4|4,0:3|0:3,0:0:0:0:
210,303,124392,6,0,B|249:331|302:323|331:288,1,135,4|0,0:0|0:0,0:0:0:0:
356,252,124780,1,8,0:0:0:0:
504,356,124973,2,0,B|472:366|439:362|412:348,1,90,2|0,0:0|0:0,0:0:0:0:
356,252,125360,1,2,0:0:0:0:
480,168,125554,2,0,L|472:260,1,90,8|0,0:0|0:0,0:0:0:0:
364,160,125941,6,0,L|372:64,1,90,8|4,0:0|0:3,0:0:0:0:
392,40,126231,1,0,0:0:0:0:
392,40,126328,2,0,B|423:26|458:30|484:48,1,90,4|4,0:3|0:3,0:0:0:0:
280,96,126715,2,0,B|249:109|217:106|190:92,1,90,2|0,0:0|0:0,0:0:0:0:
7,196,127102,2,0,L|96:192,1,90,8|0,0:0|0:0,0:0:0:0:
112,304,127489,5,12,0:0:0:0:
196,124,127683,1,2,0:0:0:0:
96,192,127876,1,8,0:0:0:0:
224,348,128070,1,2,0:0:0:0:
304,164,128263,1,8,0:0:0:0:
92,80,128457,1,2,0:0:0:0:
200,232,128651,1,8,0:3:0:0:
420,112,128844,6,0,B|358:157|271:137|234:70,1,215.999993408203,4|4,0:0|0:3,0:0:0:0:
340,28,129425,1,4,0:3:0:0:
392,236,129618,1,4,0:3:0:0:
220,48,129812,1,8,0:0:0:0:
420,112,130005,1,0,0:0:0:0:
420,112,130102,1,8,0:0:0:0:
420,112,130199,1,8,0:0:0:0:
188,212,130392,6,0,B|150:181|99:179|61:203,1,135,4|0,0:0|0:0,0:0:0:0:
32,228,130780,1,2,0:0:0:0:
164,304,130973,1,8,0:0:0:0:
128,144,131167,1,0,0:0:0:0:
72,308,131360,1,2,0:0:0:0:
188,212,131554,1,2,0:0:0:0:
224,372,131747,1,8,0:0:0:0:
364,240,131941,6,0,B|381:210|379:176|364:148,1,90,2|0,0:0|0:0,0:0:0:0:
280,100,132328,1,2,0:0:0:0:
280,280,132521,2,0,B|307:324|359:342|408:329|439:297,1,180,8|2,0:0|0:0,0:0:0:0:
460,200,133102,1,2,0:0:0:0:
500,360,133296,1,8,0:0:0:0:
364,240,133489,6,0,L|372:48,1,180,2|0,0:0|0:0,0:0:0:0:
240,16,134070,1,8,0:0:0:0:
180,140,134263,2,0,L|280:144,1,90,2|0,0:0|0:0,0:0:0:0:
364,240,134651,1,2,0:0:0:0:
452,104,134844,1,8,0:0:0:0:
364,240,135038,6,0,L|184:232,1,180,2|0,0:0|0:0,0:0:0:0:
72,112,135618,2,0,B|51:88|47:55|58:27,1,90,8|2,0:0|0:0,0:0:0:0:
180,140,136005,1,0,0:0:0:0:
88,220,136199,1,2,0:0:0:0:
144,60,136392,1,8,0:0:0:0:
219,223,136586,6,0,B|263:243|313:224|336:184,1,135,4|0,0:0|0:0,0:0:0:0:
344,148,136973,1,2,0:0:0:0:
252,132,137167,1,8,0:0:0:0:
203,311,137360,2,0,B|263:333|326:316|368:276,1,180,2|0,0:0|0:0,0:0:0:0:
480,352,137941,1,8,0:0:0:0:
369,275,138134,6,0,L|359:140,1,135,4|0,0:0|0:0,0:0:0:0:
360,104,138521,1,2,0:0:0:0:
480,184,138715,1,8,0:0:0:0:
272,248,138909,2,0,L|261:68,1,180,2|0,0:0|0:0,0:0:0:0:
360,104,139489,1,8,0:0:0:0:
368,276,139683,6,0,B|343:341|265:368|205:332,1,180,4|0,0:0|0:0,0:0:0:0:
156,152,140263,1,10,0:0:0:0:
72,372,140457,1,0,0:0:0:0:
268,212,140651,1,2,0:0:0:0:
48,236,140844,1,2,0:0:0:0:
168,292,141038,1,8,0:0:0:0:
240,124,141231,6,0,B|198:159|138:157|95:123|81:78,1,180,4|4,0:0|0:3,0:0:0:0:
284,36,141812,1,4,0:3:0:0:
268,212,142005,2,0,L|276:257,2,45,0|0|4,0:0|0:0|0:3,0:0:0:0:
176,56,142392,1,0,0:0:0:0:
176,56,142489,1,8,0:0:0:0:
176,56,142586,1,8,0:0:0:0:
216,284,142780,6,0,B|254:247|310:244|351:271,1,135,4|0,0:0|0:0,0:0:0:0:
368,288,143167,1,2,0:0:0:0:
192,372,143360,1,8,0:0:0:0:
152,200,143554,1,0,0:0:0:0:
288,348,143747,1,2,0:0:0:0:
120,296,143941,1,2,0:0:0:0:
252,180,144134,1,8,0:0:0:0:
92,120,144328,6,0,L|2:127,1,90,2|0,0:0|0:0,0:0:0:0:
128,28,144715,1,2,0:0:0:0:
152,200,144909,2,0,L|331:185,1,180,8|0,0:0|0:0,0:0:0:0:
392,96,145489,1,2,0:0:0:0:
456,232,145683,1,8,0:0:0:0:
380,343,145876,6,0,B|326:308|308:241|331:185,1,180,2|0,0:0|0:0,0:0:0:0:
392,96,146457,1,8,0:0:0:0:
332,184,146651,2,0,L|240:180,1,90,2|0,0:0|0:0,0:0:0:0:
392,96,147038,1,2,0:0:0:0:
456,232,147231,1,8,0:0:0:0:
392,96,147425,6,0,L|208:84,1,180,2|0,0:0|0:0,0:0:0:0:
112,212,148005,2,0,L|208:220,1,90,8|2,0:0|0:0,0:0:0:0:
96,96,148392,1,0,0:0:0:0:
48,288,148586,1,2,0:0:0:0:
8,132,148780,1,8,0:0:0:0:
136,304,148973,6,0,B|184:312|184:312|223:293|223:293|272:300,1,135,4|0,0:0|0:0,0:0:0:0:
300,308,149360,1,2,0:0:0:0:
160,128,149554,1,8,0:0:0:0:
112,212,149747,2,0,B|172:220|172:220|228:200|228:200|287:209,1,180,2|0,0:0|0:0,0:0:0:0:
160,128,150328,1,10,0:0:0:0:
236,296,150521,1,0,0:0:0:0:
415,209,150715,6,0,B|375:182|325:185|288:210,1,135,4|0,0:0|0:0,0:0:0:0:
256,232,151102,1,8,0:0:0:0:
80,92,151296,2,0,B|125:138|197:137|240:93,1,180,4|0,0:0|0:0,0:0:0:0:
156,32,151876,1,8,0:0:0:0:
56,180,152070,1,0,0:0:0:0:
144,324,152263,6,0,B|159:293|154:258|133:234,1,90,4|0,0:0|0:0,0:0:0:0:
180,139,152554,2,0,B|151:178|156:230|186:263,1,135,4|4,0:3|0:3,0:0:0:0:
308,172,153038,6,0,B|264:156|264:156|248:200,1,90,4|0,0:3|0:0,0:0:0:0:
388,208,153328,2,0,B|408:164|389:114|349:92,1,135,4|0,0:3|0:3,0:0:0:0:
312,260,153812,1,4,0:0:0:0:
312,260,154780,6,0,L|340:220,2,30,4|4|0,0:3|0:3|0:0,0:0:0:0:
312,260,154973,2,0,B|196:268,1,116.999994644165,4|0,0:0|0:0,0:0:0:0:
148,272,155263,1,0,0:0:0:0:
148,272,155360,5,2,0:0:0:0:
248,76,155554,1,2,0:0:0:0:
236,316,155747,5,10,0:0:0:0:
288,112,155941,1,0,0:0:0:0:
332,320,156134,5,2,0:0:0:0:
336,128,156328,1,2,0:0:0:0:
420,292,156521,5,10,0:0:0:0:
392,132,156715,1,2,0:0:0:0:
488,224,156909,6,0,B|449:195|399:196|361:219,1,135,6|0,0:0|0:0,0:0:0:0:
328,236,157296,1,8,0:0:0:0:
172,108,157489,2,0,B|251:153|251:153|336:128,1,180,4|0,0:0|0:0,0:0:0:0:
264,48,158070,1,8,0:0:0:0:
112,228,158263,1,2,0:0:0:0:
112,228,158360,1,2,0:0:0:0:
112,228,158457,5,4,0:0:0:0:
172,108,158651,1,2,0:0:0:0:
48,56,158844,1,8,0:0:0:0:
88,264,159038,2,0,B|128:206|203:189|263:215,1,180,2|2,0:0|0:0,0:0:0:0:
304,272,159521,1,2,0:0:0:0:
304,272,159618,2,0,L|288:360,1,90,8|0,0:0|0:0,0:0:0:0:
388,228,160005,6,0,L|404:140,1,90,2|0,0:0|0:0,0:0:0:0:
432,48,160296,1,2,0:0:0:0:
432,48,160392,2,0,L|476:56,1,45,10|0,0:0|0:0,0:0:0:0:
340,72,160586,2,0,L|248:52,1,90,8|0,0:0|0:0,0:0:0:0:
64,64,160973,1,4,0:3:0:0:
132,176,161167,1,8,0:0:0:0:
168,8,161360,1,4,0:3:0:0:
152,184,161554,6,0,L|159:255,1,72,4|0,0:0|0:0,0:0:0:0:
320,384,161941,2,0,L|312:312,1,72,0|0,0:0|1:0,0:0:0:0:
240,212,162328,2,0,B|244:264|244:264|228:304|228:304|236:360,1,144,,,0:0:0:0:
160,256,162909,1,0,0:0:0:0:
312,316,163102,6,0,L|392:300,1,72,0|0,1:0|0:0,0:0:0:0:
476,328,163489,1,0,0:0:0:0:
487,208,163683,2,0,B|444:236|388:221|363:178,1,144,0|0,1:0|0:0,0:0:0:0:
336,80,164263,1,2,0:3:0:0:
440,140,164457,1,0,0:0:0:0:
283,188,164651,6,0,B|235:207|183:189|157:149,1,144,0|0,1:0|0:0,0:0:0:0:
36,240,165231,2,0,B|83:219|137:238|163:279,1,144,0|0,1:0|0:0,0:0:0:0:
236,360,165812,1,2,0:0:0:0:
280,240,166005,1,0,0:0:0:0:
396,296,166199,5,0,1:0:0:0:
420,292,166296,1,2,0:0:0:0:
304,236,166489,1,0,1:0:0:0:
280,240,166586,1,2,0:0:0:0:
412,184,166780,2,0,B|440:140|436:86|409:47,1,144,0|0,1:0|0:0,0:0:0:0:
312,80,167360,1,8,0:0:0:0:
216,40,167554,1,0,0:0:0:0:
148,148,167747,6,0,L|224:144,1,72,4|0,0:0|0:0,0:0:0:0:
60,104,168134,1,0,0:0:0:0:
48,240,168328,2,0,B|96:215|152:226|186:262,1,144,2|0,1:3|0:0,0:0:0:0:
248,340,168909,1,4,0:3:0:0:
304,236,169102,1,0,0:0:0:0:
380,304,169296,6,0,L|368:396,1,80.9999975280763,4|0,0:0|0:0,0:0:0:0:
472,280,169683,1,0,0:0:0:0:
344,208,169876,2,0,L|356:128,1,80.9999975280763,0|0,1:0|0:0,0:0:0:0:
424,60,170263,1,0,0:0:0:0:
272,132,170457,1,4,0:3:0:0:
444,184,170651,1,0,1:0:0:0:
284,348,170844,6,0,B|242:300|175:288|121:312,1,180,4|0,0:0|0:0,0:0:0:0:
0,144,171425,2,0,B|47:196|127:196|175:149,1,180,4|0,0:0|0:0,0:0:0:0:
248,72,172005,1,8,0:0:0:0:
212,240,172199,1,0,0:0:0:0:
92,96,172392,6,0,L|102:6,1,90,4|0,0:0|0:0,0:0:0:0:
184,144,172780,1,0,0:0:0:0:
104,272,172973,2,0,L|12:264,1,90,4|0,0:0|0:0,0:0:0:0:
180,344,173360,1,4,0:3:0:0:
108,184,173554,1,8,0:0:0:0:
68,360,173747,1,4,0:3:0:0:
212,240,173941,6,0,L|304:244,1,90,4|0,0:0|0:0,0:0:0:0:
376,164,174328,1,8,0:0:0:0:
468,316,174521,2,0,L|378:312,1,90,2|0,0:0|0:0,0:0:0:0:
272,160,174909,1,0,0:0:0:0:
452,211,175102,2,0,B|467:183|468:151|456:124,1,90,10|0,0:0|0:0,0:0:0:0:
264,56,175489,6,0,L|353:49,1,90,2|0,0:0|0:0,0:0:0:0:
184,140,175876,2,0,L|88:144,1,90,8|2,0:0|0:0,0:0:0:0:
172,48,176263,1,0,0:0:0:0:
272,160,176457,1,2,0:0:0:0:
104,192,176651,1,8,0:0:0:0:
264,56,176844,1,2,0:0:0:0:
196,232,177038,6,0,L|199:331,1,90,6|0,0:0|0:0,0:0:0:0:
376,360,177425,2,0,L|372:268,1,90,8|0,0:0|0:0,0:0:0:0:
316,172,177812,1,2,0:0:0:0:
460,248,178005,1,2,0:0:0:0:
280,264,178199,1,8,0:0:0:0:
412,168,178392,1,2,0:0:0:0:
256,92,178586,6,0,L|152:96,1,90,4|0,0:0|0:0,0:0:0:0:
72,40,178973,1,8,0:0:0:0:
16,228,179167,2,0,B|53:175|120:159|175:183,1,180,2|0,0:0|0:0,0:0:0:0:
364,316,179747,1,2,0:0:0:0:
320,324,179844,1,2,0:0:0:0:
276,332,179941,1,2,0:0:0:0:
232,344,180038,1,2,0:0:0:0:
190,353,180134,6,0,B|151:302|148:237|176:185,1,180,6|4,0:0|0:3,0:0:0:0:
456,12,180715,2,0,B|487:68|485:132|459:184,1,180,4|0,0:0|0:0,0:0:0:0:
248,100,181296,2,0,L|340:104,1,90,8|0,0:0|0:0,0:0:0:0:
124,252,181683,6,0,L|32:244,1,90,4|0,0:0|0:0,0:0:0:0:
200,180,182070,1,0,0:0:0:0:
216,352,182263,2,0,B|243:294|312:271|368:298,1,180,4|0,0:0|0:0,0:0:0:0:
492,176,182844,2,0,B|461:181|430:177|403:167,1,90,8|0,0:0|0:0,0:0:0:0:
276,104,183231,5,4,0:0:0:0:
172,196,183425,1,0,0:0:0:0:
160,240,183521,1,4,0:3:0:0:
176,280,183618,1,4,0:3:0:0:
356,148,183812,2,0,B|370:119|370:87|359:60,1,90,4|0,0:0|0:0,0:0:0:0:
272,196,184199,1,4,0:3:0:0:
412,240,184392,1,4,0:3:0:0:
276,104,184586,6,0,L|186:111,1,90,4|0,0:0|0:0,0:0:0:0:
124,32,184973,1,4,0:3:0:0:
172,196,185167,1,4,0:3:0:0:
312,80,185360,2,0,L|216:88,1,90,4|0,0:0|0:0,0:0:0:0:
124,32,185747,1,4,0:3:0:0:
172,196,185941,1,4,0:3:0:0:
312,80,186134,1,4,0:3:0:0:
208,100,186328,5,4,0:0:0:0:
32,148,192134,6,0,L|120:140,1,67.5,,,0:0:0:0:
120,140,192521,6,0,B|130:167|131:195|124:221,1,72,4|2,0:0|0:3,0:0:0:0:
116,316,192909,2,0,B|134:298|158:289|181:290,1,72,0|2,1:0|0:3,0:0:0:0:
272,240,193296,2,0,B|242:230|221:207|212:180,1,72,0|2,1:0|0:3,0:0:0:0:
220,100,193683,2,0,B|239:78|266:67|292:68,1,72,0|2,1:0|0:3,0:0:0:0:
368,152,194070,6,0,B|341:163|313:162|289:153,1,80.9999975280763,0|2,1:0|0:3,0:0:0:0:
300,340,194457,2,0,B|312:312|334:291|359:279,1,80.9999975280763,0|2,1:0|0:3,0:0:0:0:
172,192,194844,2,0,B|189:216|194:246|188:272,1,80.9999975280763,0|2,1:0|0:3,0:0:0:0:
88,256,195231,1,0,0:0:0:0:
103,103,195425,6,0,B|138:157|208:172|261:141,1,180,4|4,0:0|0:3,0:0:0:0:
328,36,196005,1,4,0:3:0:0:
204,64,196199,1,4,0:3:0:0:
308,240,196392,1,8,0:0:0:0:
392,144,196586,1,8,0:0:0:0:
172,192,196780,1,8,0:0:0:0:
256,332,196973,6,0,B|283:270|357:246|415:276,1,180,4|0,0:0|0:0,0:0:0:0:
407,272,197457,1,0,0:0:0:0:
407,272,197554,1,8,0:0:0:0:
176,288,197747,1,0,0:0:0:0:
176,288,197844,1,0,0:0:0:0:
176,288,197941,1,4,0:3:0:0:
328,136,198134,1,4,0:3:0:0:
356,352,198328,1,4,0:3:0:0:
40,256,198521,6,0,B|0:200|3:129|39:77,1,188.999994232178,4|0,0:1|0:0,0:0:0:0:
104,36,198909,1,2,0:0:0:0:
256,168,199102,1,8,0:0:0:0:
136,164,199296,1,0,0:0:0:0:
304,44,199489,1,2,0:0:0:0:
308,272,199683,1,2,0:0:0:0:
200,72,199876,1,8,0:0:0:0:
344,148,200070,6,0,L|442:139,1,99.0000030212403,2|0,0:0|0:0,0:0:0:0:
304,44,200457,1,2,0:0:0:0:
200,244,200651,2,0,B|156:276|98:273|55:241|37:197,1,198.000006042481,8|0,0:0|0:0,0:0:0:0:
136,164,201231,1,2,0:0:0:0:
84,340,201425,1,8,0:0:0:0:
220,280,201618,6,0,B|264:216|350:202|411:243,1,198.000006042481,2|0,0:0|0:0,0:0:0:0:
480,316,202199,1,8,0:0:0:0:
502,135,202392,2,0,L|404:132,1,99.0000030212403,2|0,0:0|0:0,0:0:0:0:
284,48,202780,1,2,0:0:0:0:
404,132,202973,1,8,0:0:0:0:
296,233,203167,6,0,B|251:179|249:105|283:49,1,198.000006042481,2|0,0:0|0:0,0:0:0:0:
502,135,203747,2,0,L|404:132,1,99.0000030212403,8|2,0:0|0:0,0:0:0:0:
296,232,204134,1,0,0:0:0:0:
368,132,204328,1,2,0:0:0:0:
356,336,204521,1,8,0:0:0:0:
176,216,204715,6,0,B|142:175|87:163|41:180,1,148.50000453186,4|0,0:0|0:0,0:0:0:0:
0,204,205102,1,2,0:0:0:0:
84,284,205296,1,8,0:0:0:0:
216,120,205489,2,0,B|159:76|88:66|24:84,1,198.000006042481,2|0,0:0|0:0,0:0:0:0:
176,216,206070,1,8,0:0:0:0:
312,68,206263,1,2,0:0:0:0:
452,184,206457,6,0,B|360:216|360:216|300:200,1,148.50000453186,4|0,0:0|0:0,0:0:0:0:
264,184,206844,1,8,0:0:0:0:
56,288,207038,2,0,B|144:248|144:248|244:288,1,198.000006042481,4|0,0:0|0:0,0:0:0:0:
336,328,207618,1,8,0:0:0:0:
392,252,207812,1,0,0:0:0:0:
304,240,208005,5,4,0:0:0:0:
428,336,208199,1,0,0:0:0:0:
364,164,208392,1,8,0:0:0:0:
336,328,208586,1,2,0:0:0:0:
216,224,208780,1,0,0:0:0:0:
392,252,208973,1,2,0:0:0:0:
248,312,209167,1,8,0:0:0:0:
304,240,209360,1,0,0:0:0:0:
132,316,209554,5,4,0:0:0:0:
164,112,209747,1,0,0:0:0:0:
216,224,209941,1,8,0:0:0:0:
44,96,210134,1,2,0:0:0:0:
240,16,210328,1,0,0:0:0:0:
84,208,210521,1,2,0:0:0:0:
292,120,210715,1,8,0:0:0:0:
120,8,210909,1,0,0:0:0:0:
308,212,211102,6,0,L|420:200,1,99.0000030212403,4|0,0:3|0:0,0:0:0:0:
476,316,211392,2,0,B|412:276|412:276|339:286,1,148.50000453186,4|4,0:3|0:3,0:0:0:0:
112,236,211876,6,0,B|108:288|108:288|128:320|128:320|124:378,2,148.50000453186,4|4|0,0:3|0:3|0:0,0:0:0:0:
128,60,212651,1,4,0:0:0:0:
128,60,213425,6,0,B|184:80|184:80|231:68,1,108,,,0:0:0:0:
336,40,213812,6,0,L|340:92,1,45,2|2,0:0|0:0,0:0:0:0:
452,212,214005,2,0,L|448:168,1,45,2|2,0:0|0:0,0:0:0:0:
272,204,214199,6,0,L|364:200,1,90,4|0,0:0|0:0,0:0:0:0:
208,128,214586,1,8,0:0:0:0:
184,280,214780,2,0,B|153:243|104:231|62:243,1,135,2|0,0:0|0:0,0:0:0:0:
32,264,215167,1,2,0:0:0:0:
96,348,215360,1,10,0:0:0:0:
276,296,215554,6,0,L|468:284,1,180,2|0,0:0|0:0,0:0:0:0:
488,156,216134,2,0,L|396:164,1,90,8|0,0:0|0:0,0:0:0:0:
328,88,216521,1,2,0:0:0:0:
296,220,216715,1,2,0:0:0:0:
132,152,216909,2,4,L|228:144,1,90,8|0,0:0|0:0,0:0:0:0:
56,204,217296,6,0,B|41:172|40:138|52:108,1,90,6|0,0:0|0:0,0:0:0:0:
160,56,217683,1,8,0:0:0:0:
156,240,217876,2,0,L|164:332,1,90,2|0,0:0|0:0,0:0:0:0:
356,144,218263,2,0,L|348:52,1,90,4|0,0:0|0:0,0:0:0:0:
256,192,218651,5,4,0:1:0:0:
256,192,218747,12,0,221167,0:0:0:0:
